Autor Tema: Clásicos sin editar en Blu Ray  (Leído 4095 veces)

0 Usuarios y 1 Visitante están viendo este tema.

jobasur

  • Novato
  • *
  • Mensajes: 37
  • Karma: +0/-0
  • Sexo: Masculino
Clásicos sin editar en Blu Ray
« en: Octubre 31, 2021, 09:03:35 pm »
Muy buenas.
Abro hilo para recopilar, como indico en el título, ese puñado de clásicos (y no tan clásicos, pero muy reivindicables) que las editoras no han tenido a bien sacar en Alta Definición como dios manda; es decir, en Blu Ray.

Generalmente, la edición en Blu Ray por parte de una compañía "seria" conlleva una puesta al día, mejora, arreglo, remasterizado -o como queramos llamarlo- de la calidad del audio y, sobre todo, el vídeo.

Como guía de lo que EXISTE o NO publicado en Blu Ray, tomemos la web de referencia en ésto, Blu-ray.com

https://www.blu-ray.com/

Y para comenzar, pongamos un título que inexplicablemente -por ser un clasicazo- nunca se editó... pero que quizá pronto lo tengamos.

IVANHOE -Ivanhoe- (Richard Thorpe - 1952)



https://www.filmaffinity.com/es/film852868.html

Aunque, en este primer caso, hay cierta esperanza. Puede ser que, a mediados de diciembre, haya una sorpresa en la zona A
https://www.blu-ray.com/movies/Ivanhoe-Blu-ray/133121/
Curiosamente, entre lo disponible, el DVD ofrece mejor calidad que algún HDTV / WEB -de distitos pesos- que corren por la red.
Esperemos a diciembre, a ver que nos traen...
« Última modificación: Noviembre 07, 2021, 02:07:50 pm por jobasur »

jobasur

  • Novato
  • *
  • Mensajes: 37
  • Karma: +0/-0
  • Sexo: Masculino
Re: Clásicos sin editar en Blu Ray
« Respuesta #1 en: Octubre 31, 2021, 09:32:24 pm »
Indicar, por supuesto, que -a falta de un buen Blu Ray-, bueno es un WEB-DL de cualquiera de estas películas.

Si conocéis uno aceptable, este hilo es un estupendo lugar donde comentarlo y/o compartirlo.

jobasur

  • Novato
  • *
  • Mensajes: 37
  • Karma: +0/-0
  • Sexo: Masculino
Re: Clásicos sin editar en Blu Ray
« Respuesta #2 en: Octubre 31, 2021, 09:40:10 pm »
LA LEYENDA DE LA CIUDAD SIN NOMBRE -Paint your wagon- (Joshua Logan - 1969)



https://www.filmaffinity.com/es/film689189.html

En este caso, "ni está ni se le espera". El título en cuestión es ya todo un clásico, con una inmejorable banda sonora de Lerner & Loewe. Hete aquí que fue todo un éxito en España, pero un fracaso en el resto de países en su día (sobre todo, en USA). No la deben tener en tanta estima, cuando aún no han pensado en editarla.

Para esta película, si conozco de la existencia de algún WEB-DL aceptable, aunque la calidad de imagen es bastante -bastante- mejorable, apenas superior a la del DVD.
« Última modificación: Noviembre 07, 2021, 02:05:43 pm por jobasur »

jobasur

  • Novato
  • *
  • Mensajes: 37
  • Karma: +0/-0
  • Sexo: Masculino
Re: Clásicos sin editar en Blu Ray
« Respuesta #3 en: Octubre 31, 2021, 09:55:16 pm »
CARAVANA DE MUJERES -Westward the women - (William A Wellman - 1951)



https://www.filmaffinity.com/es/film280923.html

Lo de este título también es imperdonable. Posiblemente, una de las mejores de Wellman, una película que no ha perdido un ápice de su fuerza, aunque pueda parecer un título menor -quizá por eso no lo han editado-, pero de las que dejan huella.

Aquí en España, su "reposición" una noche en la primera cadena de TV dió lugar a un "plan para Plan", una caravana cañí para el pueblo oscense de Plan, medio perdido en el pirineo aragonés (con bastante éxito, salieron unas 40 parejas estables).
https://www.heraldo.es/noticias/aragon/huesca/2015/03/14/se-cumplen-anos-la-caravana-mujeres-plan-344890-2261127.html
-como curiosidad-

Pero no sólo en España. El célebre cómic franco-belga de Morris, Lucky Luke, homenajea a la película y le dedica un álbum entero https://fr.wikipedia.org/wiki/La_Fianc%C3%A9e_de_Lucky_Luke y parte de otro https://es.wikiqube.net/wiki/La_Caravane

Se puede encontrar en una edición muy aceptable, pero del DVD. No hay un WEB-DL, que yo conozca.
« Última modificación: Noviembre 07, 2021, 02:06:51 pm por jobasur »

jobasur

  • Novato
  • *
  • Mensajes: 37
  • Karma: +0/-0
  • Sexo: Masculino
Re: Clásicos sin editar en Blu Ray
« Respuesta #4 en: Octubre 31, 2021, 10:02:42 pm »
PASO AL NOROESTE -Northwest passage- (King Vidor - 1940)



https://www.filmaffinity.com/es/film195547.html

El primer western en color de Vidor. Hoy no sería muy políticamente correcta, era la época. Si bien no llega a la altura de clásico, si que es un vigoroso western / película de aventuras, sumamente entretenido. A rescatar.

Puede que exista algún WEB-DL, pero sin fuentes. Las copias accesibles tienen una calidad bastante pobre.
« Última modificación: Noviembre 07, 2021, 02:09:14 pm por jobasur »

geot

  • Administrator
  • Miembro Completo
  • *****
  • Mensajes: 100
  • Karma: +52/-0
Re: Clásicos sin editar en Blu Ray
« Respuesta #5 en: Noviembre 01, 2021, 02:13:40 am »
Pues de caravana de mujeres no hay WEB-DL, pero hay HDTV, si no pasa nada mañana tendremos algo mas potable que el dvdrip , no llegara a un Br remasterizado, eso esta claro, pero algo mejoraremos

jobasur

  • Novato
  • *
  • Mensajes: 37
  • Karma: +0/-0
  • Sexo: Masculino
Re: Clásicos sin editar en Blu Ray
« Respuesta #6 en: Noviembre 01, 2021, 12:28:15 pm »
Pues de caravana de mujeres no hay WEB-DL, pero hay HDTV, si no pasa nada mañana tendremos algo mas potable que el dvdrip , no llegara a un Br remasterizado, eso esta claro, pero algo mejoraremos

Pues una notable mejora será, sin duda, visto el panorama. Mi agradecimiento vaya por delante, y supongo que el de un buen puñado de Hispasharianos aficionados a los clásicos.



Un saludo
« Última modificación: Noviembre 01, 2021, 12:30:22 pm por jobasur »

jobasur

  • Novato
  • *
  • Mensajes: 37
  • Karma: +0/-0
  • Sexo: Masculino
Re: Clásicos sin editar en Blu Ray
« Respuesta #7 en: Noviembre 05, 2021, 11:44:28 am »
Por cierto, agradecer también a geot el esfuerzo de buscar "Ivanhoe", que acaba de recomendar en el .Club en versión HDTV.

La edición de geot mejora la anterior aportando una relación de aspecto más ajustada al original que el DVD, con una leve ganancia de imagen en la parte superior. Sin embargo, ya es raro, la imagen está algo más "lavada" en el HDTV que en la edición DVD.
Crucemos los dedos, para ver qué sacan en Blu Ray de aquí a mes y medio -como está previsto por el momento-, pues aún tiene un largo recorrido de mejora en una edición restaurada en condiciones.

Un saludo
« Última modificación: Noviembre 05, 2021, 11:47:49 am por jobasur »

jobasur

  • Novato
  • *
  • Mensajes: 37
  • Karma: +0/-0
  • Sexo: Masculino
Re: Clásicos sin editar en Blu Ray
« Respuesta #8 en: Noviembre 05, 2021, 12:00:25 pm »
CAPITANES INTRÉPIDOS -Captains courageous - (Victor Fleming - 1937)



https://www.filmaffinity.com/es/film833624.html

De esta, no obstante, existen varios montajes WEB-DL, uno de ellos recomendado en el .club, por entonces por cortesía de FronKy.
Tampoco hay una fecha prevista de edición en Alta definición de este clásico.
« Última modificación: Noviembre 07, 2021, 02:10:54 pm por jobasur »

jobasur

  • Novato
  • *
  • Mensajes: 37
  • Karma: +0/-0
  • Sexo: Masculino
Re: Clásicos sin editar en Blu Ray
« Respuesta #9 en: Noviembre 05, 2021, 12:14:35 pm »
Calle sin salida -Dead end- (William Wyler - 1937)



https://www.filmaffinity.com/es/film389695.html

De esta, sin fecha tampoco de edición en Blu Ray, existe un montaje HDTV 720p recomendado en el club por DMMD.

(Yo dispongo de un remontaje WEB-DL 1080p, que me gustaría recomendar en el club más adelante).
« Última modificación: Noviembre 07, 2021, 02:11:28 pm por jobasur »

jobasur

  • Novato
  • *
  • Mensajes: 37
  • Karma: +0/-0
  • Sexo: Masculino
Re: Clásicos sin editar en Blu Ray
« Respuesta #10 en: Noviembre 05, 2021, 12:22:41 pm »
El forastero -The Westerner- (William Wyler - 1940)



https://www.filmaffinity.com/es/film220318.html

Existe en una versión HDTV 720p, recomendada por DMMD, disponible en el club.
« Última modificación: Noviembre 07, 2021, 02:12:25 pm por jobasur »

jobasur

  • Novato
  • *
  • Mensajes: 37
  • Karma: +0/-0
  • Sexo: Masculino
Re: Clásicos sin editar en Blu Ray
« Respuesta #11 en: Noviembre 05, 2021, 12:29:56 pm »
El prisionero de Zenda -The Prisoner of Zenda- (John Cromwell - 1937)



https://www.filmaffinity.com/es/film775361.html

De esta versíon del clásico, de 1937, no existe nada en HD.
La versión de 1952, la más conocida (en maravilloso Technicolor y para mí un puntito por encima de ésta en "encanto") es en realidad es casi una copia plano por plano de esta versión, algo reconocido en su momento. Recomendable que la rescatéis, los amantes del cine clásico, si no la conoceis ya.
« Última modificación: Noviembre 07, 2021, 02:13:16 pm por jobasur »

jobasur

  • Novato
  • *
  • Mensajes: 37
  • Karma: +0/-0
  • Sexo: Masculino
Re: Clásicos sin editar en Blu Ray
« Respuesta #12 en: Noviembre 05, 2021, 01:02:44 pm »
La parada de los monstruos -Freaks- (Tod Browning - 1932)



https://www.filmaffinity.com/es/film970488.html

Existe un montaje HDTV recomendado por FronKy en el club, a 720p, en Versión Original.

Yo también dispongo de una VOSE WEB-DL 1080p, que podría recomendar más adelante, si os parece.
« Última modificación: Noviembre 07, 2021, 02:14:58 pm por jobasur »

El caminante

  • Novato
  • *
  • Mensajes: 15
  • Karma: +0/-0
  • Sexo: Masculino
  • Un poco de cada uno es un mucho para todos
Re: Clásicos sin editar en Blu Ray
« Respuesta #13 en: Noviembre 05, 2021, 02:26:11 pm »
LA LEYENDA DE LA CIUDAD SIN NOMBRE -Paint your wagon- (Joshua Logan - 1969)



https://www.filmaffinity.com/es/film689189.html

En este caso, "ni está ni se le espera". El título en cuestión es ya todo un clásico, con una inmejorable banda sonora de Lerner & Loewe. Hete aquí que fue todo un éxito en España, pero un fracaso en el resto de países en su día (sobre todo, en USA). No la deben tener en tanta estima, cuando aún no han pensado en editarla.

Para esta película, si conozco de la existencia de algún WEB-DL aceptable, aunque la calidad de imagen es bastante -bastante- mejorable, apenas superior a la del DVD.


En una página de Torrent extranjera la encontré en Hevc. Os dejo el mediainfo:

Format : HEVC
Format/Info : High Efficiency Video Coding
Format profile : Main 10@L4@Main
Codec ID : hev1
Codec ID/Info : High Efficiency Video Coding
Duration : 2 h 40 min
Bit rate : 2 001 kb/s
Width : 1 916 pixels
Height : 816 pixels
Display aspect ratio : 2.35:1
Frame rate mode : Constant
Frame rate : 23.976 (24000/1001) FPS
Color space : YUV
Chroma subsampling : 4:2:0
Bit depth : 10 bits
Bits/(Pixel*Frame) : 0.053
Stream size : 2.24 GiB (90%)
Writing library : x265 3.3+4-rarbg-30eb4de83092:[Linux][GCC 8.3.1][64 bit] 10bit
Encoding settings : cpuid=1111039 / frame-threads=4 / wpp / no-pmode / no-pme / no-psnr / no-ssim / log-level=2 / input-csp=1 / input-res=1916x816 / interlace=0 / total-frames=0 / level-idc=0 / high-tier=1 / uhd-bd=0 / ref=4 / no-allow-non-conformance / no-repeat-headers / annexb / no-aud / no-hrd / info / hash=0 / no-temporal-layers / open-gop / min-keyint=23 / keyint=250 / gop-lookahead=0 / bframes=4 / b-adapt=2 / b-pyramid / bframe-bias=0 / rc-lookahead=25 / lookahead-slices=4 / scenecut=40 / hist-scenecut=0 / radl=0 / no-splice / no-intra-refresh / ctu=64 / min-cu-size=8 / rect / no-amp / max-tu-size=32 / tu-inter-depth=1 / tu-intra-depth=1 / limit-tu=0 / rdoq-level=2 / dynamic-rd=0.00 / no-ssim-rd / signhide / no-tskip / nr-intra=0 / nr-inter=0 / no-constrained-intra / strong-intra-smoothing / max-merge=3 / limit-refs=3 / limit-modes / me=3 / subme=3 / merange=57 / temporal-mvp / no-frame-dup / no-hme / weightp / no-weightb / no-analyze-src-pics / deblock=0:0 / no-sao / no-sao-non-deblock / rd=4 / selective-sao=0 / no-early-skip / rskip / no-fast-intra / no-tskip-fast / no-cu-lossless / no-b-intra / no-splitrd-skip / rdpenalty=0 / psy-rd=2.00 / psy-rdoq=1.00 / no-rd-refine / no-lossless / cbqpoffs=0 / crqpoffs=0 / rc=abr / bitrate=2000 / qcomp=0.60 / qpstep=4 / stats-write=0 / stats-read=2 / cplxblur=20.0 / qblur=0.5 / ipratio=1.40 / pbratio=1.30 / aq-mode=3 / aq-strength=1.00 / cutree / zone-count=0 / no-strict-cbr / qg-size=32 / no-rc-grain / qpmax=69 / qpmin=0 / no-const-vbv / sar=1 / overscan=0 / videoformat=5 / range=0 / colorprim=2 / transfer=2 / colormatrix=2 / chromaloc=0 / display-window=0 / cll=0,0 / min-luma=0 / max-luma=1023 / log2-max-poc-lsb=8 / vui-timing-info / vui-hrd-info / slices=1 / no-opt-qp-pps / no-opt-ref-list-length-pps / no-multi-pass-opt-rps / scenecut-bias=0.05 / hist-threshold=0.01 / no-opt-cu-delta-qp / no-aq-motion / no-hdr10 / no-hdr10-opt / no-dhdr10-opt / no-idr-recovery-sei / analysis-reuse-level=0 / analysis-save-reuse-level=0 / analysis-load-reuse-level=0 / scale-factor=0 / refine-intra=0 / refine-inter=0 / refine-mv=1 / refine-ctu-distortion=0 / no-limit-sao / ctu-info=0 / no-lowpass-dct / refine-analysis-type=0 / copy-pic=1 / max-ausize-factor=1.0 / no-dynamic-refine / no-single-sei / no-hevc-aq / no-svt / no-field / qp-adaptation-range=1.00 / no-scenecut-aware-qpconformance-window-offsets / right=0 / bottom=0
Encoded date : UTC 2020-06-26 06:16:32
Tagged date : UTC 2020-06-26 06:16:32
Codec configuration box : hvcC

Audio
ID : 2
Format : AAC LC
Format/Info : Advanced Audio Codec Low Complexity
Codec ID : mp4a-40-2
Duration : 2 h 40 min
Duration_LastFrame : -12 ms
Bit rate mode : Constant
Bit rate : 224 kb/s
Channel(s) : 6 channels
Channel layout : C L R Ls Rs LFE
Sampling rate : 48.0 kHz
Frame rate : 46.875 FPS (1024 SPF)
Compression mode : Lossy
Stream size : 257 MiB (10%)
Language : English
Default : Yes
Alternate group : 1
Encoded date : UTC 2020-06-26 06:16:32
Tagged date : UTC 2020-06-26 06:16:32


El caminante

  • Novato
  • *
  • Mensajes: 15
  • Karma: +0/-0
  • Sexo: Masculino
  • Un poco de cada uno es un mucho para todos
Re: Clásicos sin editar en Blu Ray
« Respuesta #14 en: Noviembre 05, 2021, 02:31:05 pm »
CAPITANES INTRÉPIDOS -Captains courageous - (Victor Fleming - 1937)



https://www.filmaffinity.com/es/film833624.html

De esta, no obstante, existen varios montajes WEB-DL, uno de ellos recomendado en el .club, por entonces por cortesía de FronKy.
Tampoco hay una fecha prevista de edición en Alta definición de este clásico.

Más de  lo mismo.
ID : 1
Format : HEVC
Format/Info : High Efficiency Video Coding
Format profile : Main 10@L4@Main
Codec ID : hev1
Codec ID/Info : High Efficiency Video Coding
Duration : 1 h 56 min
Bit rate : 2 001 kb/s
Width : 1 440 pixels
Height : 1 080 pixels
Display aspect ratio : 4:3
Frame rate mode : Constant
Frame rate : 23.976 (24000/1001) FPS
Color space : YUV
Chroma subsampling : 4:2:0
Bit depth : 10 bits
Bits/(Pixel*Frame) : 0.054
Stream size : 1.63 GiB (90%)
Writing library : x265 3.3+4-rarbg-30eb4de83092:[Linux][GCC 8.3.1][64 bit] 10bit
Encoding settings : cpuid=1111039 / frame-threads=4 / wpp / no-pmode / no-pme / no-psnr / no-ssim / log-level=2 / input-csp=1 / input-res=1440x1080 / interlace=0 / total-frames=0 / level-idc=0 / high-tier=1 / uhd-bd=0 / ref=4 / no-allow-non-conformance / no-repeat-headers / annexb / no-aud / no-hrd / info / hash=0 / no-temporal-layers / open-gop / min-keyint=23 / keyint=250 / gop-lookahead=0 / bframes=4 / b-adapt=2 / b-pyramid / bframe-bias=0 / rc-lookahead=25 / lookahead-slices=4 / scenecut=40 / hist-scenecut=0 / radl=0 / no-splice / no-intra-refresh / ctu=64 / min-cu-size=8 / rect / no-amp / max-tu-size=32 / tu-inter-depth=1 / tu-intra-depth=1 / limit-tu=0 / rdoq-level=2 / dynamic-rd=0.00 / no-ssim-rd / signhide / no-tskip / nr-intra=0 / nr-inter=0 / no-constrained-intra / strong-intra-smoothing / max-merge=3 / limit-refs=3 / limit-modes / me=3 / subme=3 / merange=57 / temporal-mvp / no-frame-dup / no-hme / weightp / no-weightb / no-analyze-src-pics / deblock=0:0 / no-sao / no-sao-non-deblock / rd=4 / selective-sao=0 / no-early-skip / rskip / no-fast-intra / no-tskip-fast / no-cu-lossless / no-b-intra / no-splitrd-skip / rdpenalty=0 / psy-rd=2.00 / psy-rdoq=1.00 / no-rd-refine / no-lossless / cbqpoffs=0 / crqpoffs=0 / rc=abr / bitrate=2000 / qcomp=0.60 / qpstep=4 / stats-write=0 / stats-read=2 / cplxblur=20.0 / qblur=0.5 / ipratio=1.40 / pbratio=1.30 / aq-mode=3 / aq-strength=1.00 / cutree / zone-count=0 / no-strict-cbr / qg-size=32 / no-rc-grain / qpmax=69 / qpmin=0 / no-const-vbv / sar=1 / overscan=0 / videoformat=5 / range=0 / colorprim=2 / transfer=2 / colormatrix=2 / chromaloc=0 / display-window=0 / cll=0,0 / min-luma=0 / max-luma=1023 / log2-max-poc-lsb=8 / vui-timing-info / vui-hrd-info / slices=1 / no-opt-qp-pps / no-opt-ref-list-length-pps / no-multi-pass-opt-rps / scenecut-bias=0.05 / hist-threshold=0.01 / no-opt-cu-delta-qp / no-aq-motion / no-hdr10 / no-hdr10-opt / no-dhdr10-opt / no-idr-recovery-sei / analysis-reuse-level=0 / analysis-save-reuse-level=0 / analysis-load-reuse-level=0 / scale-factor=0 / refine-intra=0 / refine-inter=0 / refine-mv=1 / refine-ctu-distortion=0 / no-limit-sao / ctu-info=0 / no-lowpass-dct / refine-analysis-type=0 / copy-pic=1 / max-ausize-factor=1.0 / no-dynamic-refine / no-single-sei / no-hevc-aq / no-svt / no-field / qp-adaptation-range=1.00 / no-scenecut-aware-qpconformance-window-offsets / right=0 / bottom=0
Encoded date : UTC 2021-10-30 01:40:20
Tagged date : UTC 2021-10-30 01:40:20
Codec configuration box : hvcC

Audio
ID : 2
Format : AAC LC
Format/Info : Advanced Audio Codec Low Complexity
Codec ID : mp4a-40-2
Duration : 1 h 56 min
Duration_LastFrame : -1 ms
Bit rate mode : Constant
Bit rate : 224 kb/s
Channel(s) : 2 channels
Channel layout : L R
Sampling rate : 48.0 kHz
Frame rate : 46.875 FPS (1024 SPF)
Compression mode : Lossy
Stream size : 187 MiB (10%)
Language : English
Default : Yes
Alternate group : 1
Encoded date : UTC 2021-10-30 01:40:20
Tagged date : UTC 2021-10-30 01:40:20